conanlcg
超级版主

[2019] [欧美] [其他] [BD-Remux] 超人之死与超人归来 The.Death.and.Return.of.Superman.2019.1080p.BluRay.REMUX.AVC.DTS-HD.MA

-->

帖子完整标题:超人之死与超人归来 The.Death.and.Return.of.Superman.2019.1080p.BluRay.REMUX.AVC.DTS-HD.MA.5.1-FGT 21.19GB




◎译  名 超人之死与超人归来
◎片  名 The Death and Return of Superman
◎年  代 2019
◎产  地 美国
◎类  别 动画
◎语  言 英语
◎上映日期 2019-10-01(美国)
◎IMDb链接 http://www.imdb.com/title/tt11043546
◎豆瓣评分 0/10 from 0 users
◎豆瓣链接 https://movie.douban.com/subject/34845738/
◎片  长 166分钟
◎导  演 杰克·卡斯托雷纳 Jake Castorena / 刘山姆 Sam Liu
◎编  剧 比尔·芬格 Bill Finger
◎主  演 杰瑞·奥康奈尔 Jerry O'Connell
      丽贝卡·罗梅恩 Rebecca Romijn
      罗莎里奥·道森 Rosario Dawson
      耐姆比·耐姆比 Nyambi Nyambi
      乔纳森·亚当斯 Jonathan Adams
      洛奇·卡罗尔 Rocky Carroll
      特雷弗·德瓦 Trevor Devall
      保罗·伊丁 Paul Eiding
      詹妮弗·黑尔 Jennifer Hale
      查尔斯·哈尔福德 Charles Halford
      艾丽卡·鲁特雷尔 Erica Luttrell
      马克斯·迈特尔曼 Max Mittelman
      托克斯·奥拉贡多耶 Toks Olagundoye
      里克·帕斯夸隆 Rick Pasqualone
      Amanda Troop


◎简  介

  The Death of Superman and Reign of the Supermen now presented as an over two-hour unabridged and seamless animated feature. Witness the no-holds-barred battle between the Justice League and an unstoppable alien force known only as Doomsday, a battle that only Superman can finish and will forever change the face of Metropolis.
  The Death and Return of Superman finds Superman in a fight to the finish when the Man of Steel becomes the only hero who can stand in the way of the monstrous creature Doomsday and his unstoppable rampage. Superman saves the planet, but not himself, leaving Earth’s citizens – and his heroic contemporaries – dealing with a world without Superman. The aftermath of Superman’s death, and the subsequent disappearance of his body, leads to a new mystery – is Superman still alive? The question is further complicated when four new super-powered individuals – Steel, Cyborg Superman, Superboy and the Eradicator – emerge to proclaim themselves as the ultimate hero. In the end, only one will be able to proclaim himself the world’s true Superman.
Video
ID : 1
Format : AVC
Format/Info : Advanced Video Codec
Format profile : [email protected]
Format settings : CABAC / 4 Ref Frames
Format settings, CABAC : Yes
Format settings, Reference frames : 4 frames
Codec ID : V_MPEG4/ISO/AVC
Duration : 2 h 46 min
Bit rate mode : Variable
Bit rate : 13.9 Mb/s
Maximum bit rate : 37.0 Mb/s
Width : 1 920 pixels
Height : 1 080 pixels
Display aspect ratio : 16:9
Frame rate mode : Constant
Frame rate : 23.976 (24000/1001) FPS
Color space : YUV
Chroma subsampling : 4:2:0
Bit depth : 8 bits
Scan type : Progressive
Bits/(Pixel*Frame) : 0.279
Stream size : 16.1 GiB (76%)
Title : The.Death.and.Return.of.Superman.2019.1080p.BluRay.REMUX.AVC.DTS-HD.MA.5.1-FGT
Language : English
Default : No
Forced : No

Audio #1
ID : 2
Format : DTS XLL
Format/Info : Digital Theater Systems
Commercial name : DTS-HD Master Audio
Codec ID : A_DTS
Duration : 2 h 46 min
Bit rate mode : Variable
Bit rate : 2 364 kb/s
Channel(s) : 6 channels
Channel layout : C L R Ls Rs LFE
Sampling rate : 48.0 kHz
Frame rate : 93.750 FPS (512 SPF)
Bit depth : 24 bits
Compression mode : Lossless
Stream size : 2.75 GiB (13%)
Title : The.Death.and.Return.of.Superman.2019.1080p.BluRay.REMUX.AVC.DTS-HD.MA.5.1-FGT
Language : English
Default : Yes
Forced : No

Audio #2
ID : 3
Format : AC-3
Format/Info : Audio Coding 3
Commercial name : Dolby Digital
Codec ID : A_AC3
Duration : 2 h 46 min
Bit rate mode : Constant
Bit rate : 640 kb/s
Channel(s) : 6 channels
Channel layout : L R C LFE Ls Rs
Sampling rate : 48.0 kHz
Frame rate : 31.250 FPS (1536 SPF)
Bit depth : 16 bits
Compression mode : Lossy
Stream size : 762 MiB (4%)
Title : The.Death.and.Return.of.Superman.2019.1080p.BluRay.REMUX.AVC.DTS-HD.MA.5.1-FGT
Language : French
Service kind : Complete Main
Default : No
Forced : No

Audio #3
ID : 4
Format : AC-3
Format/Info : Audio Coding 3
Commercial name : Dolby Digital
Codec ID : A_AC3
Duration : 2 h 46 min
Bit rate mode : Constant
Bit rate : 640 kb/s
Channel(s) : 6 channels
Channel layout : L R C LFE Ls Rs
Sampling rate : 48.0 kHz
Frame rate : 31.250 FPS (1536 SPF)
Bit depth : 16 bits
Compression mode : Lossy
Stream size : 762 MiB (4%)
Title : The.Death.and.Return.of.Superman.2019.1080p.BluRay.REMUX.AVC.DTS-HD.MA.5.1-FGT
Language : German
Service kind : Complete Main
Default : No
Forced : No

Audio #4
ID : 5
Format : AC-3
Format/Info : Audio Coding 3
Commercial name : Dolby Digital
Codec ID : A_AC3
Duration : 2 h 46 min
Bit rate mode : Constant
Bit rate : 640 kb/s
Channel(s) : 6 channels
Channel layout : L R C LFE Ls Rs
Sampling rate : 48.0 kHz
Frame rate : 31.250 FPS (1536 SPF)
Bit depth : 16 bits
Compression mode : Lossy
Stream size : 762 MiB (4%)
Title : The.Death.and.Return.of.Superman.2019.1080p.BluRay.REMUX.AVC.DTS-HD.MA.5.1-FGT
Language : Spanish
Service kind : Complete Main
Default : No
Forced : No

Text #1
ID : 6
Format : UTF-8
Codec ID : S_TEXT/UTF8
Codec ID/Info : UTF-8 Plain Text
Duration : 2 h 45 min
Bit rate : 56 b/s
Count of elements : 2327
Stream size : 68.4 KiB (0%)
Title : English-SRT
Language : English
Default : Yes
Forced : No

Text #2
ID : 7
Format : PGS
Muxing mode : zlib
Codec ID : S_HDMV/PGS
Codec ID/Info : Picture based subtitle format used on BDs/HD-DVDs
Duration : 2 h 45 min
Bit rate : 33.0 kb/s
Count of elements : 4282
Stream size : 39.0 MiB (0%)
Title : English-PGS
Language : English
Default : No
Forced : No

Text #3
ID : 8
Format : PGS
Muxing mode : zlib
Codec ID : S_HDMV/PGS
Codec ID/Info : Picture based subtitle format used on BDs/HD-DVDs
Duration : 2 h 45 min
Bit rate : 28.9 kb/s
Count of elements : 3734
Stream size : 34.2 MiB (0%)
Title : French-PGS
Language : French
Default : No
Forced : No

Text #4
ID : 9
Format : PGS
Muxing mode : zlib
Codec ID : S_HDMV/PGS
Codec ID/Info : Picture based subtitle format used on BDs/HD-DVDs
Duration : 2 h 45 min
Bit rate : 39.9 kb/s
Count of elements : 4344
Stream size : 47.2 MiB (0%)
Title : German-PGS
Language : German
Default : No
Forced : No

Text #5
ID : 10
Format : PGS
Muxing mode : zlib
Codec ID : S_HDMV/PGS
Codec ID/Info : Picture based subtitle format used on BDs/HD-DVDs
Duration : 2 h 45 min
Bit rate : 30.2 kb/s
Count of elements : 3718
Stream size : 35.7 MiB (0%)
Title : Dutch-PGS
Language : Dutch
Default : No
Forced : No

Text #6
ID : 11
Format : PGS
Muxing mode : zlib
Codec ID : S_HDMV/PGS
Codec ID/Info : Picture based subtitle format used on BDs/HD-DVDs
Duration : 2 h 45 min
Bit rate : 30.2 kb/s
Count of elements : 3750
Stream size : 35.8 MiB (0%)
Title : Spanish-PGS
Language : Spanish
Default : No
Forced : No

Text #7
ID : 12
Format : PGS
Muxing mode : zlib
Codec ID : S_HDMV/PGS
Codec ID/Info : Picture based subtitle format used on BDs/HD-DVDs
Duration : 2 h 45 min
Bit rate : 29.7 kb/s
Count of elements : 3720
Stream size : 35.1 MiB (0%)
Title : Danish-PGS
Language : Danish
Default : No
Forced : No

Text #8
ID : 13
Format : PGS
Muxing mode : zlib
Codec ID : S_HDMV/PGS
Codec ID/Info : Picture based subtitle format used on BDs/HD-DVDs
Duration : 2 h 45 min
Bit rate : 29.0 kb/s
Count of elements : 3732
Stream size : 34.4 MiB (0%)
Title : Finnish-PGS
Language : Finnish
Default : No
Forced : No

Text #9
ID : 14
Format : PGS
Muxing mode : zlib
Codec ID : S_HDMV/PGS
Codec ID/Info : Picture based subtitle format used on BDs/HD-DVDs
Duration : 2 h 45 min
Bit rate : 29.5 kb/s
Count of elements : 3732
Stream size : 34.9 MiB (0%)
Title : Norwegian-PGS
Language : Norwegian
Default : No
Forced : No

Text #10
ID : 15
Format : PGS
Muxing mode : zlib
Codec ID : S_HDMV/PGS
Codec ID/Info : Picture based subtitle format used on BDs/HD-DVDs
Duration : 2 h 45 min
Bit rate : 29.4 kb/s
Count of elements : 3733
Stream size : 34.8 MiB (0%)
Title : Swedish-PGS
Language : Swedish
Default : No
Forced : No

Text #11
ID : 16
Format : PGS
Muxing mode : zlib
Codec ID : S_HDMV/PGS
Codec ID/Info : Picture based subtitle format used on BDs/HD-DVDs
Duration : 2 h 34 min
Bit rate : 422 b/s
Count of elements : 58
Stream size : 478 KiB (0%)
Title : German-PGS
Language : German
Default : No
Forced : No

Menu
00:00:00.000 : en:Chapter 01
00:07:48.926 : en:Chapter 02
00:14:28.033 : en:Chapter 03
00:25:28.193 : en:Chapter 04
00:33:27.839 : en:Chapter 05
00:43:19.847 : en:Chapter 06
00:50:19.766 : en:Chapter 07
01:00:19.282 : en:Chapter 08
01:09:33.878 : en:Chapter 09
01:18:22.656 : en:Chapter 10
01:26:38.693 : en:Chapter 11
01:32:43.266 : en:Chapter 12
01:40:51.879 : en:Chapter 13
01:51:19.964 : en:Chapter 14
01:59:28.119 : en:Chapter 15
02:08:28.742 : en:Chapter 16
02:17:40.126 : en:Chapter 17
02:27:44.063 : en:Chapter 18
02:35:26.317 : en:Chapter 19
02:42:50.093 : en:Chapter 20





1 个附件 售价 大小 下载 时间

The.Death.and.Return.of.Superman.2019.1080p.BluRay.REMUX.AVC.DTS-HD.MA.5.1-FGT.torrent 0 金币 53.56K 336 次 12天前

#1楼
发帖时间:2019-11-09 20:55:37   |   回复数:1
911degrees
隐世仙人♂
非常感谢,谢谢分享
11天前 #2楼
游客组