conanlcg
超级版主

[更 早] [欧美] [恐怖] [BD-Remux] 剥皮女魔 Skinner.1993.1080p.BluRay.REMUX.AVC.LPCM.2.0-FGT 18.83GB

-->

帖子完整标题:剥皮女魔 Skinner.1993.1080p.BluRay.REMUX.AVC.LPCM.2.0-FGT 18.83GB




◎译  名 剥皮女魔
◎片  名 Skinner
◎年  代 1993
◎产  地 美国
◎类  别 恐怖
◎语  言 英语
◎上映日期 1995-07-12
◎IMDb评分 5.0/10 from 500 users
◎IMDb链接 http://www.imdb.com/title/tt0114466
◎豆瓣评分 0/10 from 0 users
◎豆瓣链接 https://movie.douban.com/subject/1298775/
◎片  长 90分钟
◎导  演 Ivan Nagy (I)
◎编  剧 Paul Hart-Wilden
◎主  演 Traci Lords
      Richard SchiffDavid
      Ted Raimi


◎标  签 恐怖 | 血腥 | 变态 | 剥皮女魔 | 杀戮 | 美国电影 | VCD | 1

◎简  介

  海蒂被一残暴的神经病患丹尼斯毁容,他专门在城市里的街道及河边猎取不知情的妓女,海蒂一心复仇,无奈计划一次又一次地失败。正当另一名女子凯莉被丹尼斯抓走之际,海蒂及凯莉的丈夫杰夫及时在一间废弃的仓库找到了他们,就在丹尼斯准备切割凯莉时,海蒂牺牲了自己...。
Video
ID : 1
Format : AVC
Format/Info : Advanced Video Codec
Format profile : [email protected]
Format settings : CABAC / 4 Ref Frames
Format settings, CABAC : Yes
Format settings, Reference frames : 4 frames
Codec ID : V_MPEG4/ISO/AVC
Duration : 1 h 28 min
Bit rate mode : Variable
Bit rate : 29.0 Mb/s
Maximum bit rate : 37.2 Mb/s
Width : 1 920 pixels
Height : 1 080 pixels
Display aspect ratio : 16:9
Frame rate mode : Constant
Frame rate : 23.976 (24000/1001) FPS
Standard : NTSC
Color space : YUV
Chroma subsampling : 4:2:0
Bit depth : 8 bits
Scan type : Progressive
Bits/(Pixel*Frame) : 0.583
Stream size : 17.9 GiB (95%)
Title : Skinner.1993.1080p.BluRay.REMUX.AVC.LPCM.2.0-FGT
Language : English
Default : No
Forced : No
Color range : Limited
Color primaries : BT.709
Transfer characteristics : BT.709
Matrix coefficients : BT.709

Audio
ID : 2
Format : PCM
Format settings : Little / Signed
Codec ID : A_PCM/INT/LIT
Duration : 1 h 28 min
Bit rate mode : Constant
Bit rate : 1 536 kb/s
Channel(s) : 2 channels
Sampling rate : 48.0 kHz
Frame rate : 30.000 FPS (1600 SPF)
Bit depth : 16 bits
Stream size : 970 MiB (5%)
Title : Skinner.1993.1080p.BluRay.REMUX.AVC.LPCM.2.0-FGT
Language : English
Default : Yes
Forced : No

Text
ID : 3
Format : PGS
Muxing mode : zlib
Codec ID : S_HDMV/PGS
Codec ID/Info : Picture based subtitle format used on BDs/HD-DVDs
Duration : 1 h 28 min
Bit rate : 26.8 kb/s
Count of elements : 1797
Stream size : 16.9 MiB (0%)
Title : English-PGS
Language : English
Default : Yes
Forced : No

Menu
00:00:00.000 : en:Chapter 01
00:11:20.429 : en:Chapter 02
00:23:50.387 : en:Chapter 03
00:37:53.062 : en:Chapter 04
00:54:25.929 : en:Chapter 05
01:06:55.052 : en:Chapter 06
01:16:20.742 : en:Chapter 07
01:25:29.082 : en:Chapter 08





1 个附件 售价 大小 下载 时间

Skinner.1993.1080p.BluRay.REMUX.AVC.LPCM.2.0-FGT.torrent 0 金币 94.70K 301 次 12天前

#1楼
发帖时间:2019-11-09 20:57:17   |   回复数:2
911degrees
隐世仙人♂
非常感谢,谢谢分享
11天前 #2楼
kola13
一派掌门
感谢分享
11天前 #3楼
游客组