conanlcg
超级版主

[2017] [欧美] [动作] [BD-Remux] 流氓战争 Rogue.Warfare.2019.1080p.BluRay.REMUX.AVC.DTS-HD.MA.5.1-FGT 13.37GB

-->

帖子完整标题:流氓战争 Rogue.Warfare.2019.1080p.BluRay.REMUX.AVC.DTS-HD.MA.5.1-FGT 13.37GB




◎译  名 流氓战争
◎片  名 Rogue Warfare
◎年  代 2017
◎产  地 美国
◎类  别 动作
◎语  言 英语
◎IMDb链接 http://www.imdb.com/title/tt5266668
◎豆瓣评分 0/10 from 0 users
◎豆瓣链接 https://movie.douban.com/subject/26992379/
◎导  演 麦克·冈瑟 Mike Gunther
◎编  剧 Sean Day Michael / Andrew Emilio DeCesare
◎主  演 姜成镐 Sung Kang
      Kenny Sheard
      Mike McKee


◎标  签 动作

◎简  介

  A group of military elite from the U.S., Russia, UK, China and France join forces to fight an elite underground terrorist network.
Video
ID : 1
Format : AVC
Format/Info : Advanced Video Codec
Format profile : [email protected]
Format settings : CABAC / 2 Ref Frames
Format settings, CABAC : Yes
Format settings, Reference frames : 2 frames
Codec ID : V_MPEG4/ISO/AVC
Duration : 1 h 43 min
Bit rate mode : Variable
Bit rate : 17.0 Mb/s
Maximum bit rate : 30.2 Mb/s
Width : 1 920 pixels
Height : 1 080 pixels
Display aspect ratio : 16:9
Frame rate mode : Constant
Frame rate : 23.976 (24000/1001) FPS
Color space : YUV
Chroma subsampling : 4:2:0
Bit depth : 8 bits
Scan type : Progressive
Bits/(Pixel*Frame) : 0.342
Stream size : 12.2 GiB (92%)
Title : Rogue.Warfare.2019.1080p.BluRay.REMUX.AVC.DTS-HD.MA.5.1-FGT
Language : English
Default : No
Forced : No

Audio
ID : 2
Format : DTS XLL
Format/Info : Digital Theater Systems
Commercial name : DTS-HD Master Audio
Codec ID : A_DTS
Duration : 1 h 43 min
Bit rate mode : Variable
Bit rate : 1 557 kb/s
Channel(s) : 6 channels
Channel layout : C L R Ls Rs LFE
Sampling rate : 48.0 kHz
Frame rate : 93.750 FPS (512 SPF)
Bit depth : 16 bits
Compression mode : Lossless
Stream size : 1.12 GiB (8%)
Title : Rogue.Warfare.2019.1080p.BluRay.REMUX.AVC.DTS-HD.MA.5.1-FGT
Language : English
Default : Yes
Forced : No

Menu
00:00:00.000 : en:Chapter 01
00:04:04.035 : en:Chapter 02
00:13:15.294 : en:Chapter 03
00:19:40.637 : en:Chapter 04
00:32:13.097 : en:Chapter 05
00:44:34.713 : en:Chapter 06
00:49:37.557 : en:Chapter 07
00:57:14.305 : en:Chapter 08
01:01:21.594 : en:Chapter 09
01:13:10.219 : en:Chapter 10
01:24:46.915 : en:Chapter 11
01:34:12.063 : en:Chapter 12





1 个附件 售价 大小 下载 时间

Rogue.Warfare.2019.1080p.BluRay.REMUX.AVC.DTS-HD.MA.5.1-FGT.torrent 0 金币 67.41K 504 次 12天前

#1楼
发帖时间:2019-11-09 20:59:59   |   回复数:2
911degrees
隐世仙人♂
非常感谢,谢谢分享
11天前 #2楼
tanchoohoon
武林盟主
感谢楼主的无私分享
11天前 #3楼
游客组