conanlcg
超级版主

[更 早] [其他] [剧情] [WEB-1080P] 纪事 Cronicas.2004.SPANISH.1080p.AMZN.WEBRip.DDP2.0.x264-monkee 6.79GB

-->

帖子完整标题:纪事 Cronicas.2004.SPANISH.1080p.AMZN.WEBRip.DDP2.0.x264-monkee 6.79GB




◎译  名 纪事
◎片  名 Crónicas
◎年  代 2004
◎产  地 墨西哥 / 厄瓜多尔
◎类  别 剧情 / 惊悚 / 犯罪
◎语  言 西班牙语 / 英语
◎上映日期 2004-05-16
◎IMDb评分 6.8/10 from 3209 users
◎IMDb链接 https://www.imdb.com/title/tt0382621
◎豆瓣评分 0/10 from 0 users
◎豆瓣链接 https://movie.douban.com/subject/1474654/
◎片  长 108 分钟
◎导  演 塞巴斯特·柯代洛 Sebastián Cordero
◎编  剧 塞巴斯特·柯代洛 Sebastián Cordero
◎主  演 约翰·雷吉扎莫 John Leguizamo
      达米安·阿尔卡扎 Damián Alcázar


◎标  签 男演员_墨西哥_Alcázar_Damián | 男演员_美国_Leguizamo_John | 新闻 | 已下 | 女演员_西班牙_Watling_Leonor | 墨西哥 | 国家_南美洲 | 儿童

◎简  介

  A suspense thriller about a reporter from Miami who travels to Ecuador in pursuit of a serial killer known as the "Monster of Babahoyo."

◎获奖情况

  第57届戛纳电影节(2004)
  一种关注单元 一种关注大奖(提名) 塞巴斯特·柯代洛
Video
ID : 1
Format : AVC
Format/Info : Advanced Video Codec
Format profile : [email protected]
Format settings : CABAC / 4 Ref Frames
Format settings, CABAC : Yes
Format settings, Reference frames : 4 frames
Codec ID : V_MPEG4/ISO/AVC
Duration : 1 h 37 min
Bit rate mode : Constant
Bit rate : 10 000 kb/s
Width : 1 920 pixels
Height : 1 080 pixels
Display aspect ratio : 16:9
Frame rate mode : Constant
Frame rate : 23.976 (24000/1001) FPS
Color space : YUV
Chroma subsampling : 4:2:0
Bit depth : 8 bits
Scan type : Progressive
Bits/(Pixel*Frame) : 0.201
Stream size : 6.64 GiB (98%)
Default : Yes
Forced : No
Color range : Limited
Color primaries : BT.709
Transfer characteristics : BT.709
Matrix coefficients : BT.709

Audio
ID : 2
Format : E-AC-3
Format/Info : Enhanced AC-3
Commercial name : Dolby Digital Plus
Codec ID : A_EAC3
Duration : 1 h 37 min
Bit rate mode : Constant
Bit rate : 224 kb/s
Channel(s) : 2 channels
Channel layout : L R
Sampling rate : 48.0 kHz
Frame rate : 31.250 FPS (1536 SPF)
Compression mode : Lossy
Stream size : 157 MiB (2%)
Language : Spanish
Service kind : Complete Main
Default : Yes
Forced : No

Text #1
ID : 3
Format : UTF-8
Codec ID : S_TEXT/UTF8
Codec ID/Info : UTF-8 Plain Text
Duration : 1 h 31 min
Bit rate : 70 b/s
Count of elements : 1363
Stream size : 46.8 KiB (0%)
Language : English
Default : No
Forced : No

Text #2
ID : 4
Format : UTF-8
Codec ID : S_TEXT/UTF8
Codec ID/Info : UTF-8 Plain Text
Duration : 1 h 33 min
Bit rate : 69 b/s
Count of elements : 1408
Stream size : 47.7 KiB (0%)
Title : SDH
Language : English
Default : No
Forced : No





1 个附件 售价 大小 下载 时间

Cronicas.2004.SPANISH.1080p.AMZN.WEBRip.DDP2.0.x264-monkee.torrent 0 金币 34.51K 154 次 12天前

#1楼
发帖时间:2019-11-09 21:15:23   |   回复数:1
911degrees
隐世仙人♂
非常感谢,谢谢分享
11天前 #2楼
游客组