conanlcg
超级版主

[更 早] [欧美] [喜剧] [WEB-1080P] 森林泰山 George.Of.The.Jungle.1997.1080p.WEBRip.x264-RARBG 1.75GB

-->

帖子完整标题:森林泰山 George.Of.The.Jungle.1997.1080p.WEBRip.x264-RARBG 1.75GB




◎译  名 森林泰山
◎片  名 George of the Jungle
◎年  代 1997
◎产  地 美国
◎类  别 喜剧 / 动作 / 爱情 / 家庭 / 冒险
◎语  言 英语 / 西班牙语
◎上映日期 1997-12-24
◎IMDb评分 5.5/10 from 65282 users
◎IMDb链接 http://www.imdb.com/title/tt0119190
◎豆瓣评分 7.0/10 from 5550 users
◎豆瓣链接 https://movie.douban.com/subject/1300130/
◎片  长 92 分钟
◎导  演 Sam Weisman
◎编  剧 奥黛丽·威尔斯 Audrey Wells / Dana Olsen
◎主  演 约翰·克立斯 John Cleese
      布兰登·费舍 Brendan Fraser
      托马斯·哈登·丘奇 Thomas Haden Church
      莱斯利·曼恩 Leslie Mann
      理查德·朗德特依 Richard Roundtree


◎标  签 喜剧 | 美国 | 美国电影 | 爱情 | 动作 | 1997 | 电影 | 森林泰山

◎简  介

  从小被猩猩养大的乔治(布兰登·费舍 Brendan Fraser饰)一直生活在茂密的丛林中,逐渐成了森林之王。白人少女乌苏拉(莱斯利·曼恩 Leslie Mann饰)与未婚夫莱尔(托马斯·哈登·丘奇 Thomas Haden Church饰)来到非洲丛林中探险。然而两人突然遭遇狮子的袭击,危急时刻,自私的男友居然扔下乌苏拉独自逃生。幸好乔治及时将她救下,将她带到丛林的树屋中。在这里,两人度过了一段美好奇妙的丛林时光,单纯善良的乔治也赢得了乌苏拉的芳心。然而死心不改的莱尔竟开枪射伤了乔治,甚至偕同几个盗猎者要抓乔治的猩猩朋友去卖钱。
由迪斯尼公司于1997年推出的卖座喜剧电影《森林泰山》,根据美国六、七十年代同名电视卡通系列片改编而成。真人版的《森林泰山》,风格节奏及人物塑造依旧保持着原卡通片的幽默夸张,巧妙地保留了动画风格。本片在当年的全球票房收入高达一亿七千万美元,同时也捧红了“森林之王”布兰登·费舍,使他一跃跻身为好莱坞当红小生的行列。

Video
ID : 1
Format : AVC
Format/Info : Advanced Video Codec
Format profile : [email protected]
Format settings : CABAC / 4 Ref Frames
Format settings, CABAC : Yes
Format settings, Reference frames : 4 frames
Codec ID : avc1
Codec ID/Info : Advanced Video Coding
Duration : 1 h 31 min
Bit rate : 2 500 kb/s
Width : 1 920 pixels
Height : 1 036 pixels
Display aspect ratio : 1.85:1
Frame rate mode : Constant
Frame rate : 23.976 (23976/1000) FPS
Color space : YUV
Chroma subsampling : 4:2:0
Bit depth : 8 bits
Scan type : Progressive
Bits/(Pixel*Frame) : 0.052
Stream size : 1.60 GiB (92%)
Writing library : x264 core 152 r2851M ba24899
Encoding settings : cabac=1 / ref=4 / deblock=1:-1:-1 / analyse=0x3:0x113 / me=umh / subme=9 / psy=1 / psy_rd=1.00:0.15 / mixed_ref=1 / me_range=24 / chroma_me=1 / trellis=2 / 8x8dct=1 / cqm=0 / deadzone=21,11 / fast_pskip=1 / chroma_qp_offset=-3 / threads=16 / lookahead_threads=4 / sliced_threads=0 / nr=0 / decimate=1 / interlaced=0 / bluray_compat=0 / constrained_intra=0 / bframes=3 / b_pyramid=2 / b_adapt=2 / b_bias=0 / direct=3 / weightb=1 / open_gop=0 / weightp=2 / keyint=250 / keyint_min=25 / scenecut=40 / intra_refresh=0 / rc_lookahead=50 / rc=2pass / mbtree=1 / bitrate=2500 / ratetol=1.0 / qcomp=0.60 / qpmin=0 / qpmax=69 / qpstep=4 / cplxblur=20.0 / qblur=0.5 / vbv_maxrate=31250 / vbv_bufsize=31250 / nal_hrd=none / filler=0 / ip_ratio=1.40 / aq=3:1.00
Encoded date : UTC 2019-11-09 08:58:08
Tagged date : UTC 2019-11-09 08:58:08
Codec configuration box : avcC

Audio
ID : 2
Format : AAC LC
Format/Info : Advanced Audio Codec Low Complexity
Codec ID : mp4a-40-2
Duration : 1 h 31 min
Bit rate mode : Constant
Bit rate : 224 kb/s
Channel(s) : 6 channels
Channel layout : C L R Ls Rs LFE
Sampling rate : 48.0 kHz
Frame rate : 46.875 FPS (1024 SPF)
Compression mode : Lossy
Stream size : 147 MiB (8%)
Language : English
Default : Yes
Alternate group : 1
Encoded date : UTC 2019-11-09 08:58:08
Tagged date : UTC 2019-11-09 08:58:08





1 个附件 售价 大小 下载 时间

George.Of.The.Jungle.1997.1080p.WEBRip.x264-RARBG.torrent 0 金币 18.10K 161 次 12天前

#1楼
发帖时间:2019-11-09 21:24:51   |   回复数:1
911degrees
隐世仙人♂
非常感谢,谢谢分享
11天前 #2楼
游客组