conanlcg
超级版主

[更 早] [欧美] [恐怖] [WEB-1080P] 夜海怪兽 Chupacabra.Dark.Seas.2005.1080p.WEBRip.x264-RARBG 1.68GB

-->

帖子完整标题:夜海怪兽 Chupacabra.Dark.Seas.2005.1080p.WEBRip.x264-RARBG 1.68GB




◎译  名 夜海怪兽 / Chupacabra: Dark Seas / 加勒比海怪 / 卓柏卡布拉
◎片  名 Chupacabra Terror
◎年  代 2005
◎产  地 美国
◎类  别 恐怖
◎语  言 英语
◎上映日期 2005-01-29(美国)
◎IMDb评分 3.4/10 from 1276 users
◎IMDb链接 https://www.imdb.com/title/tt0435617
◎豆瓣评分 3.6/10 from 234 users
◎豆瓣链接 https://movie.douban.com/subject/2301926/
◎片  长 88分钟
◎导  演 John Shepphird
◎编  剧 Steve Jankowski / John Shepphird
◎主  演 约翰·瑞斯-戴维斯 John Rhys-Davies
      迪兰·尼尔 Dylan Neal
      切兰·西蒙斯 Chelan Simmons
      吉安卡罗·埃斯波西托 Giancarlo Esposito
      保拉·肖 Paula Shaw
      大卫米伯尔尼 David Millbern
      Mark Viniello
      Joe Miller
      Matthew R. Anderson
      Luke Darnell
      David St. Pierre
      Garon Michael
      Luciano Olz
      Scott Jolgen
      Jason Pasquale
      Kyle LeMire
      Brandon Klock


◎标  签 美国 | 恐怖 | 惊悚 | 美国电影 | 2005 | 夜海怪兽 | 电影 | 烂片中的战斗机

◎简  介

  动物学博士帕拿(吉安卡罗.埃斯波西托饰)在加勒比海群岛中抓到了一头传说中的怪物:卓柏卡布拉,并想以其名垂科学界。他想用由伦道夫船长(约翰.卫趣斯.德卫斯饰)指挥的邮轮摄政女王号把它偷运回国,但在途中这头怪物却破笼而出,并到处杀害船员和乘客。海军特种部队被派往这艘船上收服这头怪物。但最终船长伦道夫和他的女儿詹妮、联邦执法官兰斯汤普森不得不深入虎穴来扭转败局.....
Video
ID : 1
Format : AVC
Format/Info : Advanced Video Codec
Format profile : [email protected]
Format settings : CABAC / 4 Ref Frames
Format settings, CABAC : Yes
Format settings, Reference frames : 4 frames
Codec ID : avc1
Codec ID/Info : Advanced Video Coding
Duration : 1 h 28 min
Bit rate : 2 500 kb/s
Width : 1 916 pixels
Height : 1 080 pixels
Display aspect ratio : 16:9
Frame rate mode : Constant
Frame rate : 23.976 (23976/1000) FPS
Color space : YUV
Chroma subsampling : 4:2:0
Bit depth : 8 bits
Scan type : Progressive
Bits/(Pixel*Frame) : 0.050
Stream size : 1.54 GiB (92%)
Writing library : x264 core 152 r2851M ba24899
Encoding settings : cabac=1 / ref=4 / deblock=1:-1:-1 / analyse=0x3:0x113 / me=umh / subme=9 / psy=1 / psy_rd=1.00:0.15 / mixed_ref=1 / me_range=24 / chroma_me=1 / trellis=2 / 8x8dct=1 / cqm=0 / deadzone=21,11 / fast_pskip=1 / chroma_qp_offset=-3 / threads=16 / lookahead_threads=4 / sliced_threads=0 / nr=0 / decimate=1 / interlaced=0 / bluray_compat=0 / constrained_intra=0 / bframes=3 / b_pyramid=2 / b_adapt=2 / b_bias=0 / direct=3 / weightb=1 / open_gop=0 / weightp=2 / keyint=250 / keyint_min=25 / scenecut=40 / intra_refresh=0 / rc_lookahead=50 / rc=2pass / mbtree=1 / bitrate=2500 / ratetol=1.0 / qcomp=0.60 / qpmin=0 / qpmax=69 / qpstep=4 / cplxblur=20.0 / qblur=0.5 / vbv_maxrate=31250 / vbv_bufsize=31250 / nal_hrd=none / filler=0 / ip_ratio=1.40 / aq=3:1.00
Encoded date : UTC 2019-11-09 08:37:35
Tagged date : UTC 2019-11-09 08:37:35
Codec configuration box : avcC

Audio
ID : 2
Format : AAC LC
Format/Info : Advanced Audio Codec Low Complexity
Codec ID : mp4a-40-2
Duration : 1 h 28 min
Bit rate mode : Constant
Bit rate : 224 kb/s
Channel(s) : 2 channels
Channel layout : L R
Sampling rate : 48.0 kHz
Frame rate : 46.875 FPS (1024 SPF)
Compression mode : Lossy
Stream size : 141 MiB (8%)
Language : English
Default : Yes
Alternate group : 1
Encoded date : UTC 2019-11-09 08:37:35
Tagged date : UTC 2019-11-09 08:37:35





1 个附件 售价 大小 下载 时间

Chupacabra.Dark.Seas.2005.1080p.WEBRip.x264-RARBG.torrent 0 金币 17.33K 182 次 12天前

#1楼
发帖时间:2019-11-09 21:28:09   |   回复数:1
911degrees
隐世仙人♂
非常感谢,谢谢分享
11天前 #2楼
游客组