conanlcg
超级版主

[更 早] [欧美] [喜剧] [WEB-1080P] 美丽的伪证/锁不住的惊情 Her.Alibi.1989.1080p.WEBRip.x264-RARBG 1.80GB

-->

帖子完整标题:美丽的伪证/锁不住的惊情 Her.Alibi.1989.1080p.WEBRip.x264-RARBG 1.80GB




◎译  名 美丽的伪证 / 锁不住的惊情
◎片  名 Her Alibi
◎年  代 1989
◎产  地 美国
◎类  别 喜剧 / 爱情 / 悬疑 / 犯罪
◎语  言 英语 / 罗马尼亚语 / 西班牙语
◎上映日期 1989-02-03
◎IMDb评分 5.8/10 from 6450 users
◎IMDb链接 https://www.imdb.com/title/tt0097500
◎豆瓣评分 0/10 from 0 users
◎豆瓣链接 https://movie.douban.com/subject/1294275/
◎片  长 94分钟
◎导  演 Bruce Beresford
◎编  剧 Charlie Peters
◎主  演 Tom Selleck
      Paulina Porizkova
      William Daniels


◎标  签 喜剧 | 爱情 | 美国 | 1989 | 美国电影 | HBO | 1980s | 电影

◎简  介

  一名悬疑小说作家,刚被妻子抛弃,他想藉由法庭的审案过程获取灵感创作一部小说,不料却阴差阳错地认识了正以谋杀罪被起诉的保利纳,并迅速陷入了她的感情陷阱之中,自愿提供她不在谋杀现场的伪证,还邀她回家里居住,以便针对她进行新书的创作。在保利纳美丽的外表下,到底是不是一个包藏祸心的蛇蝎美人呢?
Video
ID : 1
Format : AVC
Format/Info : Advanced Video Codec
Format profile : [email protected]
Format settings : CABAC / 4 Ref Frames
Format settings, CABAC : Yes
Format settings, Reference frames : 4 frames
Codec ID : avc1
Codec ID/Info : Advanced Video Coding
Duration : 1 h 34 min
Bit rate : 2 500 kb/s
Width : 1 916 pixels
Height : 1 080 pixels
Display aspect ratio : 16:9
Frame rate mode : Constant
Frame rate : 23.976 (23976/1000) FPS
Color space : YUV
Chroma subsampling : 4:2:0
Bit depth : 8 bits
Scan type : Progressive
Bits/(Pixel*Frame) : 0.050
Stream size : 1.64 GiB (92%)
Writing library : x264 core 152 r2851M ba24899
Encoding settings : cabac=1 / ref=4 / deblock=1:-1:-1 / analyse=0x3:0x113 / me=umh / subme=9 / psy=1 / psy_rd=1.00:0.15 / mixed_ref=1 / me_range=24 / chroma_me=1 / trellis=2 / 8x8dct=1 / cqm=0 / deadzone=21,11 / fast_pskip=1 / chroma_qp_offset=-3 / threads=16 / lookahead_threads=4 / sliced_threads=0 / nr=0 / decimate=1 / interlaced=0 / bluray_compat=0 / constrained_intra=0 / bframes=3 / b_pyramid=2 / b_adapt=2 / b_bias=0 / direct=3 / weightb=1 / open_gop=0 / weightp=2 / keyint=250 / keyint_min=25 / scenecut=40 / intra_refresh=0 / rc_lookahead=50 / rc=2pass / mbtree=1 / bitrate=2500 / ratetol=1.0 / qcomp=0.60 / qpmin=0 / qpmax=69 / qpstep=4 / cplxblur=20.0 / qblur=0.5 / vbv_maxrate=31250 / vbv_bufsize=31250 / nal_hrd=none / filler=0 / ip_ratio=1.40 / aq=3:1.00
Encoded date : UTC 2019-11-09 06:43:44
Tagged date : UTC 2019-11-09 06:43:44
Codec configuration box : avcC

Audio
ID : 2
Format : AAC LC
Format/Info : Advanced Audio Codec Low Complexity
Codec ID : mp4a-40-2
Duration : 1 h 34 min
Bit rate mode : Constant
Bit rate : 224 kb/s
Channel(s) : 2 channels
Channel layout : L R
Sampling rate : 48.0 kHz
Frame rate : 46.875 FPS (1024 SPF)
Compression mode : Lossy
Stream size : 151 MiB (8%)
Language : English
Default : Yes
Alternate group : 1
Encoded date : UTC 2019-11-09 06:43:44
Tagged date : UTC 2019-11-09 06:43:44





1 个附件 售价 大小 下载 时间

Her.Alibi.1989.1080p.WEBRip.x264-RARBG.torrent 0 金币 18.60K 238 次 13天前

#1楼
发帖时间:2019-11-09 21:40:21   |   回复数:1
911degrees
隐世仙人♂
非常感谢,谢谢分享
12天前 #2楼
游客组