conanlcg
超级版主

[2017] [欧美] [喜剧] [BD-1080P] 闯入逃离/打破与退出 Breaking.And.Exiting.2018.1080p.BluRay.x264.DTS-ISm 7.03GB

-->

帖子完整标题:闯入逃离/打破与退出 Breaking.And.Exiting.2018.1080p.BluRay.x264.DTS-ISm 7.03GB




◎译  名 闯入逃离 / 打破与退出
◎片  名 Breaking & Exiting
◎年  代 2017
◎产  地 美国
◎类  别 喜剧
◎语  言 英语
◎上映日期 2018-08-17(美国)
◎IMDb评分 5.6/10 from 1344 users
◎IMDb链接 https://www.imdb.com/title/tt6285672
◎豆瓣评分 0/10 from 0 users
◎豆瓣链接 https://movie.douban.com/subject/26931865/
◎片  长 78分钟
◎导  演 彼得·费辛利 Peter Facinelli
◎编  剧 乔丹·莘森 Jordan Hinson
◎主  演 Milo Gibson
      乔丹·莘森 Jordan Hinson
      亚当·休伯 Adam Huber
      乔昆姆·德·阿尔梅达 Joaquim de Almeida
      贾斯婷·瓦希伯格 Justine Wachsberger


◎标  签 美国 | 剧情 | 爱情 | 电影 | [歐美] | PeterFacinelli | 2019 | 2018

◎简  介

  哈里,一个迷人的偷房贼,在一次未遂的入室行窃中,当他偶然发现黛西并决定把她从她自己手中救出来时,得到的东西比他讨价还价还多,于是他们两个人进入了一个黑暗的喜剧式的自我发现和爱之旅。
Video
ID : 1
Format : AVC
Format/Info : Advanced Video Codec
Format profile : [email protected]
Format settings : CABAC / 4 Ref Frames
Format settings, CABAC : Yes
Format settings, Reference frames : 4 frames
Codec ID : V_MPEG4/ISO/AVC
Duration : 1 h 18 min
Bit rate : 11.3 Mb/s
Width : 1 920 pixels
Height : 800 pixels
Display aspect ratio : 2.40:1
Frame rate mode : Constant
Frame rate : 23.976 (23976/1000) FPS
Color space : YUV
Chroma subsampling : 4:2:0
Bit depth : 8 bits
Scan type : Progressive
Bits/(Pixel*Frame) : 0.307
Stream size : 6.20 GiB (88%)
Writing library : x264 core 148 r2643 5c65704
Encoding settings : cabac=1 / ref=4 / deblock=1:-3:-3 / analyse=0x3:0x133 / me=umh / subme=11 / psy=1 / psy_rd=1.05:0.00 / mixed_ref=1 / me_range=32 / chroma_me=1 / trellis=2 / 8x8dct=1 / cqm=0 / deadzone=21,11 / fast_pskip=0 / chroma_qp_offset=-2 / threads=12 / lookahead_threads=2 / sliced_threads=0 / nr=0 / decimate=0 / interlaced=0 / bluray_compat=0 / constrained_intra=0 / bframes=8 / b_pyramid=2 / b_adapt=2 / b_bias=0 / direct=3 / weightb=1 / open_gop=0 / weightp=2 / keyint=250 / keyint_min=23 / scenecut=40 / intra_refresh=0 / rc_lookahead=50 / rc=2pass / mbtree=0 / bitrate=11318 / ratetol=1.0 / qcomp=0.60 / qpmin=0 / qpmax=69 / qpstep=4 / cplxblur=20.0 / qblur=0.5 / vbv_maxrate=50000 / vbv_bufsize=62500 / nal_hrd=none / filler=0 / ip_ratio=1.30 / pb_ratio=1.20 / aq=1:0.75
Language : English
Default : Yes
Forced : No

Audio
ID : 2
Format : DTS
Format/Info : Digital Theater Systems
Codec ID : A_DTS
Duration : 1 h 18 min
Bit rate mode : Constant
Bit rate : 1 509 kb/s
Channel(s) : 6 channels
Channel layout : C L R Ls Rs LFE
Sampling rate : 48.0 kHz
Frame rate : 93.750 FPS (512 SPF)
Bit depth : 24 bits
Compression mode : Lossy
Stream size : 847 MiB (12%)
Language : English
Default : Yes
Forced : No

Menu
00:00:00.000 : en:Chapter 1
00:12:12.982 : en:Chapter 2
00:21:43.010 : en:Chapter 3
00:30:40.005 : en:Chapter 4
00:41:21.979 : en:Chapter 5
00:51:59.950 : en:Chapter 6
01:01:32.981 : en:Chapter 7
01:07:52.944 : en:Chapter 8
01:12:49.991 : en:Chapter 9





1 个附件 售价 大小 下载 时间

Breaking.And.Exiting.2018.1080p.BluRay.x264.DTS-ISm.torrent 0 金币 35.67K 189 次 13天前

#1楼
发帖时间:2019-11-09 22:48:57   |   回复数:1
911degrees
隐世仙人♂
非常感谢,谢谢分享
12天前 #2楼
游客组