conanlcg
超级版主

[2017] [欧美] [动作] [BD-1080P] 流氓战争 Rogue.Warfare.2019.1080p.BluRay.x264.DTS-FGT 8.83GB

-->

帖子完整标题:流氓战争 Rogue.Warfare.2019.1080p.BluRay.x264.DTS-FGT 8.83GB




◎译  名 流氓战争
◎片  名 Rogue Warfare
◎年  代 2017
◎产  地 美国
◎类  别 动作
◎语  言 英语
◎IMDb链接 http://www.imdb.com/title/tt5266668
◎豆瓣评分 0/10 from 0 users
◎豆瓣链接 https://movie.douban.com/subject/26992379/
◎导  演 麦克·冈瑟 Mike Gunther
◎编  剧 Sean Day Michael / Andrew Emilio DeCesare
◎主  演 姜成镐 Sung Kang
      Kenny Sheard
      Mike McKee


◎标  签 动作

◎简  介

  A group of military elite from the U.S., Russia, UK, China and France join forces to fight an elite underground terrorist network.
Video
ID : 1
Format : AVC
Format/Info : Advanced Video Codec
Format profile : [email protected]
Format settings : CABAC / 4 Ref Frames
Format settings, CABAC : Yes
Format settings, Reference frames : 4 frames
Codec ID : V_MPEG4/ISO/AVC
Duration : 1 h 43 min
Bit rate : 11.5 Mb/s
Width : 1 920 pixels
Height : 804 pixels
Display aspect ratio : 2.40:1
Frame rate mode : Constant
Frame rate : 23.976 (24000/1001) FPS
Color space : YUV
Chroma subsampling : 4:2:0
Bit depth : 8 bits
Scan type : Progressive
Bits/(Pixel*Frame) : 0.311
Stream size : 8.28 GiB (94%)
Title : Rogue.Warfare.2019.1080p.BluRay.x264.DTS-FGT
Writing library : x264 core 148 r2795M aaa9aa8
Encoding settings : cabac=1 / ref=4 / deblock=1:-2:-2 / analyse=0x3:0x113 / me=umh / subme=9 / psy=1 / psy_rd=1.00:0.15 / mixed_ref=1 / me_range=16 / chroma_me=1 / trellis=2 / 8x8dct=1 / cqm=0 / deadzone=21,11 / fast_pskip=1 / chroma_qp_offset=-3 / threads=72 / lookahead_threads=3 / sliced_threads=0 / nr=0 / decimate=1 / interlaced=0 / bluray_compat=0 / constrained_intra=0 / bframes=3 / b_pyramid=2 / b_adapt=1 / b_bias=0 / direct=3 / weightb=1 / open_gop=0 / weightp=2 / keyint=250 / keyint_min=25 / scenecut=40 / intra_refresh=0 / rc_lookahead=50 / rc=2pass / mbtree=1 / bitrate=11500 / ratetol=1.0 / qcomp=0.60 / qpmin=0 / qpmax=69 / qpstep=4 / cplxblur=20.0 / qblur=0.5 / vbv_maxrate=31250 / vbv_bufsize=31250 / nal_hrd=none / filler=0 / ip_ratio=1.40 / aq=1:1.00
Language : English
Default : Yes
Forced : No

Audio
ID : 2
Format : DTS
Format/Info : Digital Theater Systems
Codec ID : A_DTS
Duration : 1 h 43 min
Bit rate mode : Constant
Bit rate : 768 kb/s
Channel(s) : 6 channels
Channel layout : C L R Ls Rs LFE
Sampling rate : 48.0 kHz
Frame rate : 93.750 FPS (512 SPF)
Bit depth : 16 bits
Compression mode : Lossy
Stream size : 566 MiB (6%)
Title : Rogue.Warfare.2019.1080p.BluRay.x264.DTS-FGT
Language : English
Default : Yes
Forced : No

Menu
00:00:00.000 : en:Chapter 01
00:04:04.035 : en:Chapter 02
00:13:15.294 : en:Chapter 03
00:19:40.637 : en:Chapter 04
00:32:13.097 : en:Chapter 05
00:44:34.713 : en:Chapter 06
00:49:37.557 : en:Chapter 07
00:57:14.305 : en:Chapter 08
01:01:21.594 : en:Chapter 09
01:13:10.219 : en:Chapter 10
01:24:46.915 : en:Chapter 11
01:34:12.063 : en:Chapter 12





1 个附件 售价 大小 下载 时间

Rogue.Warfare.2019.1080p.BluRay.x264.DTS-FGT.torrent 0 金币 44.69K 371 次 12天前

#1楼
发帖时间:2019-11-09 22:49:16   |   回复数:1
911degrees
隐世仙人♂
非常感谢,谢谢分享
11天前 #2楼
游客组