conanlcg
超级版主

[2019] [欧美] [其他] [BD-720P] 超人之死与超人归来 The.Death.and.Return.of.Superman.2019.720p.BluRay.x264-GETiT 5.47GB

-->

帖子完整标题:超人之死与超人归来 The.Death.and.Return.of.Superman.2019.720p.BluRay.x264-GETiT 5.47GB




◎译  名 超人之死与超人归来
◎片  名 The Death and Return of Superman
◎年  代 2019
◎产  地 美国
◎类  别 动画
◎语  言 英语
◎上映日期 2019-10-01(美国)
◎IMDb链接 http://www.imdb.com/title/tt11043546
◎豆瓣评分 0/10 from 0 users
◎豆瓣链接 https://movie.douban.com/subject/34845738/
◎片  长 166分钟
◎导  演 杰克·卡斯托雷纳 Jake Castorena / 刘山姆 Sam Liu
◎编  剧 比尔·芬格 Bill Finger
◎主  演 杰瑞·奥康奈尔 Jerry O'Connell
      丽贝卡·罗梅恩 Rebecca Romijn
      罗莎里奥·道森 Rosario Dawson
      耐姆比·耐姆比 Nyambi Nyambi
      乔纳森·亚当斯 Jonathan Adams
      洛奇·卡罗尔 Rocky Carroll
      特雷弗·德瓦 Trevor Devall
      保罗·伊丁 Paul Eiding
      詹妮弗·黑尔 Jennifer Hale
      查尔斯·哈尔福德 Charles Halford
      艾丽卡·鲁特雷尔 Erica Luttrell
      马克斯·迈特尔曼 Max Mittelman
      托克斯·奥拉贡多耶 Toks Olagundoye
      里克·帕斯夸隆 Rick Pasqualone
      Amanda Troop


◎简  介

  The Death of Superman and Reign of the Supermen now presented as an over two-hour unabridged and seamless animated feature. Witness the no-holds-barred battle between the Justice League and an unstoppable alien force known only as Doomsday, a battle that only Superman can finish and will forever change the face of Metropolis.
  The Death and Return of Superman finds Superman in a fight to the finish when the Man of Steel becomes the only hero who can stand in the way of the monstrous creature Doomsday and his unstoppable rampage. Superman saves the planet, but not himself, leaving Earth’s citizens – and his heroic contemporaries – dealing with a world without Superman. The aftermath of Superman’s death, and the subsequent disappearance of his body, leads to a new mystery – is Superman still alive? The question is further complicated when four new super-powered individuals – Steel, Cyborg Superman, Superboy and the Eradicator – emerge to proclaim themselves as the ultimate hero. In the end, only one will be able to proclaim himself the world’s true Superman.
Video
ID : 1
Format : AVC
Format/Info : Advanced Video Codec
Format profile : [email protected]
Format settings : CABAC / 5 Ref Frames
Format settings, CABAC : Yes
Format settings, Reference frames : 5 frames
Codec ID : V_MPEG4/ISO/AVC
Duration : 2 h 46 min
Bit rate : 3 191 kb/s
Width : 1 280 pixels
Height : 720 pixels
Display aspect ratio : 16:9
Frame rate mode : Constant
Frame rate : 23.976 (24000/1001) FPS
Color space : YUV
Chroma subsampling : 4:2:0
Bit depth : 8 bits
Scan type : Progressive
Bits/(Pixel*Frame) : 0.144
Stream size : 3.60 GiB (66%)
Writing library : x264 core 157 r2969 d4099dd
Encoding settings : cabac=1 / ref=5 / deblock=1:-2:-2 / analyse=0x3:0x113 / me=umh / subme=8 / psy=1 / psy_rd=1.00:0.00 / mixed_ref=1 / me_range=16 / chroma_me=1 / trellis=2 / 8x8dct=1 / cqm=0 / deadzone=21,11 / fast_pskip=1 / chroma_qp_offset=-2 / threads=22 / lookahead_threads=3 / sliced_threads=0 / nr=0 / decimate=1 / interlaced=0 / bluray_compat=0 / constrained_intra=0 / bframes=3 / b_pyramid=2 / b_adapt=2 / b_bias=0 / direct=3 / weightb=1 / open_gop=0 / weightp=2 / keyint=240 / keyint_min=24 / scenecut=40 / intra_refresh=0 / rc_lookahead=50 / rc=2pass / mbtree=1 / bitrate=3191 / ratetol=1.0 / qcomp=0.60 / qpmin=0 / qpmax=69 / qpstep=4 / cplxblur=20.0 / qblur=0.5 / ip_ratio=1.40 / aq=1:1.00
Language : English
Default : Yes
Forced : No

Audio
ID : 2
Format : DTS
Format/Info : Digital Theater Systems
Codec ID : A_DTS
Duration : 2 h 46 min
Bit rate mode : Constant
Bit rate : 1 509 kb/s
Channel(s) : 6 channels
Channel layout : C L R Ls Rs LFE
Sampling rate : 48.0 kHz
Frame rate : 93.750 FPS (512 SPF)
Bit depth : 24 bits
Compression mode : Lossy
Stream size : 1.75 GiB (32%)
Language : English
Default : Yes
Forced : No

Menu
00:00:00.000 : en:00:00:00.000
00:07:48.927 : en:00:07:48.927
00:14:28.034 : en:00:14:28.034
00:25:28.193 : en:00:25:28.193
00:33:27.839 : en:00:33:27.839
00:43:19.847 : en:00:43:19.847
00:50:19.767 : en:00:50:19.767
01:00:19.282 : en:01:00:19.282
01:09:33.878 : en:01:09:33.878
01:18:22.656 : en:01:18:22.656
01:26:38.693 : en:01:26:38.693
01:32:43.266 : en:01:32:43.266
01:40:51.879 : en:01:40:51.879
01:51:19.965 : en:01:51:19.965
01:59:28.119 : en:01:59:28.119
02:08:28.743 : en:02:08:28.743
02:17:40.127 : en:02:17:40.127
02:27:44.064 : en:02:27:44.064
02:35:26.317 : en:02:35:26.317
02:42:50.094 : en:02:42:50.094





1 个附件 售价 大小 下载 时间

The.Death.and.Return.of.Superman.2019.720p.BluRay.x264-GETiT.torrent 0 金币 28.11K 385 次 12天前

#1楼
发帖时间:2019-11-09 22:51:08   |   回复数:1
911degrees
隐世仙人♂
非常感谢,谢谢分享
11天前 #2楼
游客组