conanlcg
超级版主

[2019] [欧美] [其他] [BD-1080P] 超人之死与超人归来 The.Death.and.Return.of.Superman.2019.1080p.BluRay.x264.DTS-HD.MA.5.1-

-->

帖子完整标题:超人之死与超人归来 The.Death.and.Return.of.Superman.2019.1080p.BluRay.x264.DTS-HD.MA.5.1-FGT 9.84GB




◎译  名 超人之死与超人归来
◎片  名 The Death and Return of Superman
◎年  代 2019
◎产  地 美国
◎类  别 动画
◎语  言 英语
◎上映日期 2019-10-01(美国)
◎IMDb链接 http://www.imdb.com/title/tt11043546
◎豆瓣评分 0/10 from 0 users
◎豆瓣链接 https://movie.douban.com/subject/34845738/
◎片  长 166分钟
◎导  演 杰克·卡斯托雷纳 Jake Castorena / 刘山姆 Sam Liu
◎编  剧 比尔·芬格 Bill Finger
◎主  演 杰瑞·奥康奈尔 Jerry O'Connell
      丽贝卡·罗梅恩 Rebecca Romijn
      罗莎里奥·道森 Rosario Dawson
      耐姆比·耐姆比 Nyambi Nyambi
      乔纳森·亚当斯 Jonathan Adams
      洛奇·卡罗尔 Rocky Carroll
      特雷弗·德瓦 Trevor Devall
      保罗·伊丁 Paul Eiding
      詹妮弗·黑尔 Jennifer Hale
      查尔斯·哈尔福德 Charles Halford
      艾丽卡·鲁特雷尔 Erica Luttrell
      马克斯·迈特尔曼 Max Mittelman
      托克斯·奥拉贡多耶 Toks Olagundoye
      里克·帕斯夸隆 Rick Pasqualone
      Amanda Troop


◎简  介

  The Death of Superman and Reign of the Supermen now presented as an over two-hour unabridged and seamless animated feature. Witness the no-holds-barred battle between the Justice League and an unstoppable alien force known only as Doomsday, a battle that only Superman can finish and will forever change the face of Metropolis.
  The Death and Return of Superman finds Superman in a fight to the finish when the Man of Steel becomes the only hero who can stand in the way of the monstrous creature Doomsday and his unstoppable rampage. Superman saves the planet, but not himself, leaving Earth’s citizens – and his heroic contemporaries – dealing with a world without Superman. The aftermath of Superman’s death, and the subsequent disappearance of his body, leads to a new mystery – is Superman still alive? The question is further complicated when four new super-powered individuals – Steel, Cyborg Superman, Superboy and the Eradicator – emerge to proclaim themselves as the ultimate hero. In the end, only one will be able to proclaim himself the world’s true Superman.
Video
ID : 1
Format : AVC
Format/Info : Advanced Video Codec
Format profile : [email protected]
Format settings : CABAC / 4 Ref Frames
Format settings, CABAC : Yes
Format settings, Reference frames : 4 frames
Codec ID : V_MPEG4/ISO/AVC
Duration : 2 h 46 min
Bit rate : 6 013 kb/s
Width : 1 920 pixels
Height : 1 080 pixels
Display aspect ratio : 16:9
Frame rate mode : Constant
Frame rate : 23.976 (24000/1001) FPS
Color space : YUV
Chroma subsampling : 4:2:0
Bit depth : 8 bits
Scan type : Progressive
Bits/(Pixel*Frame) : 0.121
Stream size : 6.99 GiB (71%)
Title : The.Death.and.Return.of.Superman.2019.1080p.BluRay.x264.DTS-HD.MA.5.1-FGT
Writing library : x264 core 157 r2969 d4099dd
Encoding settings : cabac=1 / ref=4 / deblock=1:-2:-2 / analyse=0x3:0x113 / me=umh / subme=8 / psy=1 / psy_rd=1.00:0.00 / mixed_ref=1 / me_range=16 / chroma_me=1 / trellis=2 / 8x8dct=1 / cqm=0 / deadzone=21,11 / fast_pskip=1 / chroma_qp_offset=-2 / threads=34 / lookahead_threads=5 / sliced_threads=0 / nr=0 / decimate=1 / interlaced=0 / bluray_compat=0 / constrained_intra=0 / bframes=3 / b_pyramid=2 / b_adapt=2 / b_bias=0 / direct=3 / weightb=1 / open_gop=0 / weightp=2 / keyint=240 / keyint_min=24 / scenecut=40 / intra_refresh=0 / rc_lookahead=50 / rc=2pass / mbtree=1 / bitrate=6013 / ratetol=1.0 / qcomp=0.60 / qpmin=0 / qpmax=69 / qpstep=4 / cplxblur=20.0 / qblur=0.5 / ip_ratio=1.40 / aq=1:1.00
Language : English
Default : Yes
Forced : No

Audio
ID : 2
Format : DTS XLL
Format/Info : Digital Theater Systems
Commercial name : DTS-HD Master Audio
Codec ID : A_DTS
Duration : 2 h 46 min
Bit rate mode : Variable
Bit rate : 2 364 kb/s
Channel(s) : 6 channels
Channel layout : C L R Ls Rs LFE
Sampling rate : 48.0 kHz
Frame rate : 93.750 FPS (512 SPF)
Bit depth : 24 bits
Compression mode : Lossless
Stream size : 2.75 GiB (28%)
Title : The.Death.and.Return.of.Superman.2019.1080p.BluRay.x264.DTS-HD.MA.5.1-FGT
Language : English
Default : Yes
Forced : No

Text #1
ID : 3
Format : UTF-8
Codec ID : S_TEXT/UTF8
Codec ID/Info : UTF-8 Plain Text
Duration : 2 h 45 min
Bit rate : 56 b/s
Count of elements : 2327
Stream size : 68.4 KiB (0%)
Title : English-SRT
Language : English
Default : Yes
Forced : No

Text #2
ID : 4
Format : PGS
Muxing mode : zlib
Codec ID : S_HDMV/PGS
Codec ID/Info : Picture based subtitle format used on BDs/HD-DVDs
Duration : 2 h 45 min
Bit rate : 33.0 kb/s
Count of elements : 4282
Stream size : 39.0 MiB (0%)
Title : English-PGS
Language : English
Default : No
Forced : No

Text #3
ID : 5
Format : PGS
Muxing mode : zlib
Codec ID : S_HDMV/PGS
Codec ID/Info : Picture based subtitle format used on BDs/HD-DVDs
Duration : 2 h 45 min
Bit rate : 28.9 kb/s
Count of elements : 3734
Stream size : 34.2 MiB (0%)
Title : French-PGS
Language : French
Default : No
Forced : No

Text #4
ID : 6
Format : PGS
Muxing mode : zlib
Codec ID : S_HDMV/PGS
Codec ID/Info : Picture based subtitle format used on BDs/HD-DVDs
Duration : 2 h 45 min
Bit rate : 39.9 kb/s
Count of elements : 4344
Stream size : 47.2 MiB (0%)
Title : German-PGS
Language : German
Default : No
Forced : No

Text #5
ID : 7
Format : PGS
Muxing mode : zlib
Codec ID : S_HDMV/PGS
Codec ID/Info : Picture based subtitle format used on BDs/HD-DVDs
Duration : 2 h 45 min
Bit rate : 30.2 kb/s
Count of elements : 3718
Stream size : 35.7 MiB (0%)
Title : Dutch-PGS
Language : Dutch
Default : No
Forced : No

Text #6
ID : 8
Format : PGS
Muxing mode : zlib
Codec ID : S_HDMV/PGS
Codec ID/Info : Picture based subtitle format used on BDs/HD-DVDs
Duration : 2 h 45 min
Bit rate : 30.2 kb/s
Count of elements : 3750
Stream size : 35.8 MiB (0%)
Title : Spanish-PGS
Language : Spanish
Default : No
Forced : No

Text #7
ID : 9
Format : PGS
Muxing mode : zlib
Codec ID : S_HDMV/PGS
Codec ID/Info : Picture based subtitle format used on BDs/HD-DVDs
Duration : 2 h 45 min
Bit rate : 29.7 kb/s
Count of elements : 3720
Stream size : 35.1 MiB (0%)
Title : Danish-PGS
Language : Danish
Default : No
Forced : No

Text #8
ID : 10
Format : PGS
Muxing mode : zlib
Codec ID : S_HDMV/PGS
Codec ID/Info : Picture based subtitle format used on BDs/HD-DVDs
Duration : 2 h 45 min
Bit rate : 29.0 kb/s
Count of elements : 3732
Stream size : 34.4 MiB (0%)
Title : Finnish-PGS
Language : Finnish
Default : No
Forced : No

Text #9
ID : 11
Format : PGS
Muxing mode : zlib
Codec ID : S_HDMV/PGS
Codec ID/Info : Picture based subtitle format used on BDs/HD-DVDs
Duration : 2 h 45 min
Bit rate : 29.5 kb/s
Count of elements : 3732
Stream size : 34.9 MiB (0%)
Title : Norwegian-PGS
Language : Norwegian
Default : No
Forced : No

Text #10
ID : 12
Format : PGS
Muxing mode : zlib
Codec ID : S_HDMV/PGS
Codec ID/Info : Picture based subtitle format used on BDs/HD-DVDs
Duration : 2 h 45 min
Bit rate : 29.4 kb/s
Count of elements : 3733
Stream size : 34.8 MiB (0%)
Title : Swedish-PGS
Language : Swedish
Default : No
Forced : No

Text #11
ID : 13
Format : PGS
Muxing mode : zlib
Codec ID : S_HDMV/PGS
Codec ID/Info : Picture based subtitle format used on BDs/HD-DVDs
Duration : 2 h 34 min
Bit rate : 422 b/





1 个附件 售价 大小 下载 时间

The.Death.and.Return.of.Superman.2019.1080p.BluRay.x264.DTS-HD.MA.5.1-FGT.torrent 0 金币 49.77K 392 次 12天前

#1楼
发帖时间:2019-11-09 22:54:14   |   回复数:1
911degrees
隐世仙人♂
非常感谢,谢谢分享
11天前 #2楼
游客组