conanlcg
超级版主

[2018] [其他] [剧情] [BD-720P] 我们的时光 Our.Time.2018.720p.BluRay.x264-CADAVER 6.56GB

-->

帖子完整标题:我们的时光 Our.Time.2018.720p.BluRay.x264-CADAVER 6.56GB




◎译  名 我们的时光 / Our Time / Where Life is Born / 叛侣时光(港) / 敝处时光 / 爱·牧 / 生命起源
◎片  名 Nuestro tiempo
◎年  代 2018
◎产  地 墨西哥 / 法国 / 德国
◎类  别 剧情
◎语  言 西班牙语
◎上映日期 2018-09-05(威尼斯电影节)
◎IMDb评分 6.9/10 from 947 users
◎IMDb链接 https://www.imdb.com/title/tt5265964
◎豆瓣评分 6.3/10 from 298 users
◎豆瓣链接 https://movie.douban.com/subject/26653374/
◎片  长 173分钟
◎导  演 卡洛斯·雷加达斯 Carlos Reygadas
◎编  剧 卡洛斯·雷加达斯 Carlos Reygadas
◎主  演 卡洛斯·雷加达斯 Carlos Reygadas
      Phil Burgers
      Rut Reygadas


◎标  签 墨西哥 | 2018 | 卡洛斯·雷加达斯 | 剧情 | CarlosReygadas | 墨西哥电影 | 威尼斯电影节 | 法国

◎简  介

  影片背景设定在墨西哥一处斗牛养殖场内,一对开放性关系的夫妇,情感、生活在爱情的拷问下逐渐崩塌。

◎获奖情况

  第75届威尼斯电影节(2018)
  主竞赛单元 金狮奖 (提名) 卡洛斯·雷加达斯

  第66届圣塞巴斯蒂安国际电影节(2018)
  地平线大奖(提名) 卡洛斯·雷加达斯
Video
ID : 1
Format : AVC
Format/Info : Advanced Video Codec
Format profile : [email protected]
Format settings : CABAC / 12 Ref Frames
Format settings, CABAC : Yes
Format settings, Reference frames : 12 frames
Codec ID : V_MPEG4/ISO/AVC
Duration : 2 h 56 min
Bit rate : 4 857 kb/s
Width : 1 280 pixels
Height : 512 pixels
Display aspect ratio : 2.500
Frame rate mode : Constant
Frame rate : 24.000 FPS
Color space : YUV
Chroma subsampling : 4:2:0
Bit depth : 8 bits
Scan type : Progressive
Bits/(Pixel*Frame) : 0.309
Stream size : 6.00 GiB (92%)
Writing library : x264 core 158 r2988 7817004
Encoding settings : cabac=1 / ref=12 / deblock=1:-3:-3 / analyse=0x3:0x133 / me=umh / subme=9 / psy=1 / psy_rd=1.00:0.00 / mixed_ref=1 / me_range=24 / chroma_me=1 / trellis=1 / 8x8dct=1 / cqm=0 / deadzone=21,11 / fast_pskip=0 / chroma_qp_offset=-2 / threads=16 / lookahead_threads=2 / sliced_threads=0 / nr=0 / decimate=1 / interlaced=0 / bluray_compat=0 / constrained_intra=0 / bframes=8 / b_pyramid=2 / b_adapt=2 / b_bias=0 / direct=3 / weightb=1 / open_gop=0 / weightp=2 / keyint=250 / keyint_min=24 / scenecut=40 / intra_refresh=0 / rc_lookahead=60 / rc=2pass / mbtree=1 / bitrate=4857 / ratetol=1.0 / qcomp=0.60 / qpmin=0 / qpmax=69 / qpstep=4 / cplxblur=20.0 / qblur=0.5 / vbv_maxrate=62500 / vbv_bufsize=78125 / nal_hrd=none / filler=0 / ip_ratio=1.40 / aq=1:1.00
Default : Yes
Forced : No

Audio
ID : 2
Format : AC-3
Format/Info : Audio Coding 3
Commercial name : Dolby Digital
Codec ID : A_AC3
Duration : 2 h 56 min
Bit rate mode : Constant
Bit rate : 448 kb/s
Channel(s) : 6 channels
Channel layout : L R C LFE Ls Rs
Sampling rate : 48.0 kHz
Frame rate : 31.250 FPS (1536 SPF)
Bit depth : 16 bits
Compression mode : Lossy
Stream size : 567 MiB (8%)
Language : Spanish
Service kind : Complete Main
Default : Yes
Forced : No

Text
ID : 3
Format : UTF-8
Codec ID : S_TEXT/UTF8
Codec ID/Info : UTF-8 Plain Text
Duration : 2 h 51 min
Bit rate : 35 b/s
Count of elements : 1665
Stream size : 44.9 KiB (0%)
Language : English
Default : Yes
Forced : No

Menu
00:00:00.000 : en:Chapter 01
00:13:29.583 : en:Chapter 02
00:28:56.083 : en:Chapter 03
00:44:47.833 : en:Chapter 04
00:57:08.292 : en:Chapter 05
01:11:47.875 : en:Chapter 06
01:24:52.792 : en:Chapter 07
01:44:52.250 : en:Chapter 08
01:53:50.083 : en:Chapter 09
02:05:26.250 : en:Chapter 10
02:22:37.583 : en:Chapter 11
02:36:43.333 : en:Chapter 12





1 个附件 售价 大小 下载 时间

Our.Time.2018.720p.BluRay.x264-CADAVER.torrent 0 金币 33.66K 252 次 12天前

#1楼
发帖时间:2019-11-09 22:54:41   |   回复数:1
911degrees
隐世仙人♂
非常感谢,谢谢分享
11天前 #2楼
游客组