conanlcg
超级版主

[2019] [欧美] [剧情] [BD-1080P] 布莱恩·班克斯 Brian.Banks.2018.1080p.BluRay.x264.DTS-HD.MA.5.1-FGT 8.98GB

-->

帖子完整标题:布莱恩·班克斯 Brian.Banks.2018.1080p.BluRay.x264.DTS-HD.MA.5.1-FGT 8.98GB




◎译  名 布莱恩·班克斯
◎片  名 Brian Banks
◎年  代 2019
◎产  地 美国
◎类  别 剧情 / 传记 / 运动
◎语  言 英语
◎上映日期 2018-09-22(洛杉矶电影节) / 2019-09-09(美国)
◎IMDb评分 6.4/10 from 530 users
◎IMDb链接 https://www.imdb.com/title/tt3920820
◎豆瓣评分 0/10 from 0 users
◎豆瓣链接 https://movie.douban.com/subject/30183613/
◎片  长 99分钟
◎导  演 汤姆·沙迪亚克 Tom Shadyac
◎编  剧 道格·阿金森 Doug Atchison
◎主  演 梅兰妮·利伯德 Melanie Liburd
      蒂凡尼·多庞特 Tiffany Dupont
      格雷戈·金尼尔 Greg Kinnear
      阿尔迪斯·霍吉 Aldis Hodge
      雪莉·谢波德 Sherri Shepherd
      马特·巴特格里亚 Matt Battaglia
      豪莎·罗克莫雷 Xosha Roquemore
      道林·米西克 Dorian Missick
      吉诺·维托 Gino Vento
      迪安·丹顿 Dean Denton
      哈里森·斯通 Harrison Stone


◎标  签 传记 | 美国 | 橄榄球 | 审判 | 永不放弃 | 强奸 | ARC | AMC

◎简  介

  暂无相关剧情介绍
Video
ID : 1
Format : AVC
Format/Info : Advanced Video Codec
Format profile : [email protected]
Format settings : CABAC / 5 Ref Frames
Format settings, CABAC : Yes
Format settings, Reference frames : 5 frames
Codec ID : V_MPEG4/ISO/AVC
Duration : 1 h 39 min
Bit rate : 9 471 kb/s
Width : 1 920 pixels
Height : 800 pixels
Display aspect ratio : 2.40:1
Frame rate mode : Constant
Frame rate : 23.976 (24000/1001) FPS
Color space : YUV
Chroma subsampling : 4:2:0
Bit depth : 8 bits
Scan type : Progressive
Bits/(Pixel*Frame) : 0.257
Stream size : 6.59 GiB (73%)
Title : Brian.Banks.2018.1080p.BluRay.x264.DTS-HD.MA.5.1-FGT
Writing library : x264 core 158 r2984 3759fcb
Encoding settings : cabac=1 / ref=5 / deblock=1:-3:-3 / analyse=0x3:0x113 / me=umh / subme=8 / psy=1 / psy_rd=1.00:0.00 / mixed_ref=1 / me_range=16 / chroma_me=1 / trellis=1 / 8x8dct=1 / cqm=0 / deadzone=21,11 / fast_pskip=1 / chroma_qp_offset=-2 / threads=25 / lookahead_threads=4 / sliced_threads=0 / nr=0 / decimate=1 / interlaced=0 / bluray_compat=0 / constrained_intra=0 / bframes=3 / b_pyramid=2 / b_adapt=1 / b_bias=0 / direct=3 / weightb=1 / open_gop=0 / weightp=2 / keyint=250 / keyint_min=23 / scenecut=40 / intra_refresh=0 / rc_lookahead=50 / rc=2pass / mbtree=1 / bitrate=9471 / ratetol=1.0 / qcomp=0.60 / qpmin=0 / qpmax=69 / qpstep=4 / cplxblur=20.0 / qblur=0.5 / ip_ratio=1.40 / aq=1:1.00
Language : English
Default : Yes
Forced : No

Audio
ID : 2
Format : DTS XLL
Format/Info : Digital Theater Systems
Commercial name : DTS-HD Master Audio
Codec ID : A_DTS
Duration : 1 h 39 min
Bit rate mode : Variable
Bit rate : 3 370 kb/s
Channel(s) : 6 channels
Channel layout : C L R Ls Rs LFE
Sampling rate : 48.0 kHz
Frame rate : 93.750 FPS (512 SPF)
Bit depth : 24 bits
Compression mode : Lossless
Stream size : 2.35 GiB (26%)
Title : Brian.Banks.2018.1080p.BluRay.x264.DTS-HD.MA.5.1-FGT
Language : English
Default : Yes
Forced : No

Text #1
ID : 3
Format : UTF-8
Codec ID : S_TEXT/UTF8
Codec ID/Info : UTF-8 Plain Text
Duration : 1 h 33 min
Bit rate : 80 b/s
Count of elements : 1466
Stream size : 55.6 KiB (0%)
Title : English-SRT
Language : English
Default : Yes
Forced : No

Text #2
ID : 4
Format : PGS
Muxing mode : zlib
Codec ID : S_HDMV/PGS
Codec ID/Info : Picture based subtitle format used on BDs/HD-DVDs
Duration : 1 h 33 min
Bit rate : 58.6 kb/s
Count of elements : 3090
Stream size : 39.3 MiB (0%)
Title : English-PGS
Language : English
Default : No
Forced : No

Text #3
ID : 5
Format : PGS
Muxing mode : zlib
Codec ID : S_HDMV/PGS
Codec ID/Info : Picture based subtitle format used on BDs/HD-DVDs
Duration : 1 h 38 min
Bit rate : 45.3 kb/s
Count of elements : 2732
Stream size : 32.0 MiB (0%)
Title : Spanish-PGS
Language : Spanish
Default : No
Forced : No

Text #4
ID : 6
Format : PGS
Muxing mode : zlib
Codec ID : S_HDMV/PGS
Codec ID/Info : Picture based subtitle format used on BDs/HD-DVDs
Duration : 1 h 37 min
Bit rate : 1 097 b/s
Count of elements : 80
Stream size : 785 KiB (0%)
Title : Spanish-FORCED-PGS
Language : Spanish
Default : No
Forced : No

Menu
00:00:00.000 : en:Chapter 01
00:05:49.182 : en:Chapter 02
00:10:11.527 : en:Chapter 03
00:14:00.965 : en:Chapter 04
00:20:07.039 : en:Chapter 05
00:25:57.055 : en:Chapter 06
00:30:17.106 : en:Chapter 07
00:34:03.291 : en:Chapter 08
00:40:58.497 : en:Chapter 09
00:45:15.671 : en:Chapter 10
00:50:08.213 : en:Chapter 11
00:55:01.089 : en:Chapter 12
01:00:45.600 : en:Chapter 13
01:04:00.795 : en:Chapter 14
01:10:26.347 : en:Chapter 15
01:14:43.395 : en:Chapter 16
01:17:11.627 : en:Chapter 17
01:24:15.050 : en:Chapter 18
01:29:24.734 : en:Chapter 19
01:35:00.861 : en:Chapter 20





1 个附件 售价 大小 下载 时间

Brian.Banks.2018.1080p.BluRay.x264.DTS-HD.MA.5.1-FGT.torrent 0 金币 45.45K 189 次 12天前

#1楼
发帖时间:2019-11-09 22:54:47   |   回复数:1
911degrees
隐世仙人♂
非常感谢,谢谢分享
11天前 #2楼
游客组