conanlcg
超级版主

[2009] [欧美] [喜剧] [BD-1080P] 鲨鱼啾大战乌贼娘 Mega.Shark.vs.Giant.Octopus.2009.1080p.BluRay.x264-THUGLiNE 6.56GB

-->

帖子完整标题:鲨鱼啾大战乌贼娘 Mega.Shark.vs.Giant.Octopus.2009.1080p.BluRay.x264-THUGLiNE 6.56GB




◎译  名 鲨鱼啾大战乌贼娘 / Mega Shark vs. Giant Octopus in 3D / 噬人鲨斗大乌贼
◎片  名 Mega Shark vs. Giant Octopus
◎年  代 2009
◎产  地 美国
◎类  别 喜剧 / 动作 / 科幻 / 惊悚 / 恐怖 / 冒险
◎语  言 英语
◎上映日期 2009-05-19
◎IMDb评分 2.5/10 from 10150 users
◎IMDb链接 http://www.imdb.com/title/tt1350498
◎豆瓣评分 2.9/10 from 539 users
◎豆瓣链接 https://movie.douban.com/subject/3412916/
◎片  长 88分钟
◎导  演 Jack Perez
◎编  剧 Jack Perez
◎主  演 黛伯拉·吉布森 Deborah Gibson
      洛伦佐·拉马斯 Lorenzo Lamas
      Vic Chao
      Jonathan Nation
      马克亨斯特 Mark Hengst
      迈克尔·德 Michael Teh
      Chris Haley
      辛·劳洛 Sean Lawlor
      Dustin Harnish
      Dean Kreyling
      史蒂芬·布莱克哈特 Stephen Blackehart
      Dana DiMatteo
      迈尔斯·克兰福德 Myles Cranford
      Dana Healey
      约翰·博伦 John Bolen
      Michael Drummond
      Conrad Lihilihi
      大卫·威廉·詹姆斯·埃利奥特 David William James Elliott


◎标  签 科幻 | 美国 | 烂片 | 噬人鲨大战大乌贼 | 烂到好笑 | 美国电影 | 垃圾 | 2009

◎简  介

  加州海岸一直都存在着两只巨大史前海洋生物,他们为了取得海洋的霸主地位而争斗了数百年,直到有一天他们被冰河所冻结。近年来,随着气温的升高,这两只史前生物又复活了,他们在海洋中依然为所欲为,人类的生存受到了威胁,人类必须要解决这样的危机,一场人与史前生物的惨烈争斗开始了。
Video
ID : 1
Format : AVC
Format/Info : Advanced Video Codec
Format profile : [email protected]
Format settings : CABAC / 4 Ref Frames
Format settings, CABAC : Yes
Format settings, Reference frames : 4 frames
Codec ID : V_MPEG4/ISO/AVC
Duration : 1 h 28 min
Bit rate : 10.4 Mb/s
Width : 1 920 pixels
Height : 1 080 pixels
Display aspect ratio : 16:9
Frame rate mode : Constant
Frame rate : 23.976 FPS
Color space : YUV
Chroma subsampling : 4:2:0
Bit depth : 8 bits
Scan type : Progressive
Bits/(Pixel*Frame) : 0.208
Stream size : 6.29 GiB (96%)
Writing library : x264 core 79 r1354 636f98f
Encoding settings : cabac=1 / ref=4 / deblock=1:0:0 / analyse=0x3:0x2 / me=umh / subme=9 / psy=1 / psy_rd=1.0:0.0 / mixed_ref=1 / me_range=16 / chroma_me=1 / trellis=1 / 8x8dct=1 / cqm=0 / deadzone=21,11 / chroma_qp_offset=-2 / threads=3 / nr=0 / decimate=1 / mbaff=0 / constrained_intra=0 / bframes=3 / b_pyramid=0 / b_adapt=2 / b_bias=0 / direct=3 / wpredb=1 / wpredp=2 / keyint=250 / keyint_min=25 / scenecut=0 / rc_lookahead=40 / rc=2pass / mbtree=1 / bitrate=10354 / ratetol=1.0 / qcomp=0.60 / qpmin=10 / qpmax=51 / qpstep=4 / cplxblur=20.0 / qblur=0.5 / ip_ratio=1.40 / aq=1:1.00
Default : Yes
Forced : No

Audio
ID : 2
Format : AC-3
Format/Info : Audio Coding 3
Commercial name : Dolby Digital
Codec ID : A_AC3
Duration : 1 h 28 min
Bit rate mode : Constant
Bit rate : 224 kb/s
Channel(s) : 6 channels
Channel layout : L R C LFE Ls Rs
Sampling rate : 48.0 kHz
Frame rate : 31.250 FPS (1536 SPF)
Bit depth : 16 bits
Compression mode : Lossy
Stream size : 142 MiB (2%)
Language : English
Service kind : Complete Main
Default : Yes
Forced : No





1 个附件 售价 大小 下载 时间

Mega.Shark.vs.Giant.Octopus.2009.1080p.BluRay.x264-THUGLiNE.torrent 0 金币 33.33K 238 次 12天前

#1楼
发帖时间:2019-11-09 22:59:23   |   回复数:1
911degrees
隐世仙人♂
非常感谢,谢谢分享
11天前 #2楼
游客组