conanlcg
超级版主

[更 早] [其他] [动作] [BD-1080P] 火线交锋/非法基地 Direct.Action.2004.STV.1080p.BluRay.x264-ADRENALiNE 7.95GB

-->

帖子完整标题:火线交锋/非法基地 Direct.Action.2004.STV.1080p.BluRay.x264-ADRENALiNE 7.95GB




◎译  名 火线交锋 / 非法基地
◎片  名 Direct Action
◎年  代 2004
◎产  地 美国 / 加拿大
◎类  别 动作 / 惊悚 / 犯罪
◎语  言 英语
◎上映日期 2004-05-25
◎IMDb评分 5.0/10 from 1323 users
◎IMDb链接 http://www.imdb.com/title/tt0368688
◎豆瓣评分 5.8/10 from 48 users
◎豆瓣链接 https://movie.douban.com/subject/1420031/
◎片  长 97 分钟
◎导  演 悉尼 J. 弗里 (Sidney J. Furie)
◎编  剧 Greg Mellott / 悉尼 J. 弗里 (Sidney J. Furie)
◎主  演 杜夫·朗格 Dolph Lundgren


◎标  签 动作 | 美国 | Dolph_Lundgren | 美国电影 | 杜夫龙格尔 | 2004 | 这张电影这里有 | 西德尼弗里尔

◎简  介

  探员弗兰克正准备退休。由于厌倦了警局内部的腐败以及他决心帮助自己的手下得回应得的权利。然而他最后的一件案件使他卷入了一场噩梦,不但使他的事业岌岌可危,生命也可能不保……
Video
ID : 1
Format : AVC
Format/Info : Advanced Video Codec
Format profile : [email protected]
Format settings : CABAC / 4 Ref Frames
Format settings, CABAC : Yes
Format settings, Reference frames : 4 frames
Codec ID : V_MPEG4/ISO/AVC
Duration : 1 h 36 min
Bit rate : 11.3 Mb/s
Width : 1 920 pixels
Height : 1 080 pixels
Display aspect ratio : 16:9
Frame rate mode : Constant
Frame rate : 23.976 FPS
Color space : YUV
Chroma subsampling : 4:2:0
Bit depth : 8 bits
Scan type : Progressive
Bits/(Pixel*Frame) : 0.228
Stream size : 7.49 GiB (94%)
Writing library : x264 core 78 r1301 bcba15d
Encoding settings : cabac=1 / ref=4 / deblock=1:0:0 / analyse=0x3:0x133 / me=umh / subme=7 / psy=1 / psy_rd=1.0:0.0 / mixed_ref=1 / me_range=16 / chroma_me=1 / trellis=1 / 8x8dct=1 / cqm=0 / deadzone=21,11 / chroma_qp_offset=-2 / threads=12 / nr=0 / decimate=1 / mbaff=0 / constrained_intra=0 / bframes=3 / b_pyramid=0 / b_adapt=1 / b_bias=0 / direct=1 / wpredb=1 / keyint=250 / keyint_min=25 / scenecut=40 / rc_lookahead=40 / rc=2pass / mbtree=1 / bitrate=11342 / ratetol=1.0 / qcomp=0.60 / qpmin=10 / qpmax=51 / qpstep=4 / cplxblur=20.0 / qblur=0.5 / ip_ratio=1.40 / aq=1:1.00
Language : English
Default : Yes
Forced : No

Audio
ID : 2
Format : AC-3
Format/Info : Audio Coding 3
Commercial name : Dolby Digital
Codec ID : A_AC3
Duration : 1 h 36 min
Bit rate mode : Constant
Bit rate : 448 kb/s
Channel(s) : 6 channels
Channel layout : L R C LFE Ls Rs
Sampling rate : 48.0 kHz
Frame rate : 31.250 FPS (1536 SPF)
Bit depth : 16 bits
Compression mode : Lossy
Stream size : 309 MiB (4%)
Language : English
Service kind : Complete Main
Default : Yes
Forced : No

Text
ID : 3
Format : UTF-8
Codec ID : S_TEXT/UTF8
Codec ID/Info : UTF-8 Plain Text
Language : English
Default : Yes
Forced : No





2 个附件 售价 大小 下载 时间

Drifter.Henry.Lee.Lucas.2009.1080p.BluRay.x264-AiRLiNE.torrent 0 金币 33.99K 126 次 12天前

Direct.Action.2004.STV.1080p.BluRay.x264-ADRENALiNE.torrent 0 金币 40.23K 217 次 12天前

#1楼
发帖时间:2019-11-09 23:03:27   |   回复数:1
911degrees
隐世仙人♂
非常感谢,谢谢分享
11天前 #2楼
游客组