awkn
武林高手

[更早] [欧美] [剧情] [纯净版] [度盘/BT][愤怒的公牛][BD-MP4/ 3.11GB][英语双字][1080p][H265][10bit][AAC 5.1][马丁·斯科塞斯]

-->


导演马丁·斯科塞斯
编剧马丁·斯科塞斯 / 保罗·施拉德
主演罗伯特·德尼罗 / 凯西·莫拉蒂 / 乔·佩西 / 弗兰克·文森特 / 特雷萨·萨尔达娜 / 更多...
类型: 剧情 / 传记 / 运动
制片国家/地区: 美国
语言: 英语
上映日期: 1980-11-14
片长: 129 分钟
又名: 蛮牛 / 狂牛
IMDb链接: tt0081398

IMDB评分:8.2

豆瓣评分:8.4


愤怒的公牛的剧情简介 · · · · · ·

  杰克•拉莫塔(罗伯特•德尼罗 Robert De Niro 饰)出身于纽约的布鲁克林区。自小便进行拳击训练的杰克很快就在拳击界崭露头角,他因在比赛中出拳迅猛,打击对手毫不留情,表现得就像一头公牛,被称为“愤怒的公牛”。 
  虽然杰克表现出色,但因为他为人耿直,不肯屈服于黑手党的安排,所以在当时他一直无缘于挑战拳王金腰带。在多次失意后,杰克终于向黑手党屈服,听从安排输掉了一场比赛。之后杰克如愿挑战了拳王并顺利加冕。 
  加冕后的杰克不仅没有体会到预想中的兴奋,反而看透了拳击界的种种黑幕,决意退出。


General

Complete name               : C:\Users\Administrator\Desktop\Raging.Bull.1980.30th.Anniv.BD1080p.x265.10bit.HEVC.ACC.5.1.英语双字-AWKN.mp4

Format                      : MPEG-4

Format profile              : Base Media

Codec ID                    : iso4 (iso4/hvc1/iso6)

File size                   : 3.11 GiB

Duration                    : 2 h 9 min

Overall bit rate mode       : Variable

Overall bit rate            : 3 455 kb/s

Encoded date                : UTC 2019-11-22 03:07:50

Tagged date                 : UTC 2019-11-22 03:07:50


Video

ID                          : 1

Format                      : HEVC

Format/Info                 : High Efficiency Video Coding

Format profile              : Main [email protected]@Main

Codec ID                    : hvc1

Codec ID/Info               : High Efficiency Video Coding

Duration                    : 2 h 9 min

Bit rate                    : 3 198 kb/s

Maximum bit rate            : 10.2 Mb/s

Width                       : 1 920 pixels

Height                      : 1 040 pixels

Display aspect ratio        : 1.85:1

Frame rate mode             : Constant

Frame rate                  : 23.976 (24000/1001) FPS

Color space                 : YUV

Chroma subsampling          : 4:2:0

Bit depth                   : 10 bits

Bits/(Pixel*Frame)          : 0.067

Stream size                 : 2.88 GiB (93%)

Writing library             : x265 2.9169e76b6bbcc:[Windows][GCC 8.2.0][64 bit] 10bit

Encoding settings           : cpuid=1049583 / frame-threads=4 / numa-pools=20 / wpp / no-pmode / no-pme / no-psnr / no-ssim / log-level=2 / input-csp=1 / input-res=1920x1040 / interlace=0 / total-frames=185641 / level-idc=0 / high-tier=1 / uhd-bd=0 / ref=4 / no-allow-non-conformance / no-repeat-headers / annexb / no-aud / no-hrd / info / hash=0 / no-temporal-layers / open-gop / min-keyint=23 / keyint=250 / gop-lookahead=0 / bframes=4 / b-adapt=2 / b-pyramid / bframe-bias=0 / rc-lookahead=25 / lookahead-slices=4 / scenecut=40 / radl=0 / no-intra-refresh / ctu=64 / min-cu-size=8 / rect / no-amp / max-tu-size=32 / tu-inter-depth=1 / tu-intra-depth=1 / limit-tu=0 / rdoq-level=2 / dynamic-rd=0.00 / no-ssim-rd / signhide / no-tskip / nr-intra=0 / nr-inter=0 / no-constrained-intra / strong-intra-smoothing / max-merge=3 / limit-refs=3 / limit-modes / me=3 / subme=3 / merange=57 / temporal-mvp / weightp / no-weightb / no-analyze-src-pics / deblock=0:0 / sao / no-sao-non-deblock / rd=4 / no-early-skip / rskip / no-fast-intra / no-tskip-fast / no-cu-lossless / no-b-intra / no-splitrd-skip / rdpenalty=0 / psy-rd=2.00 / psy-rdoq=1.00 / no-rd-refine / no-lossless / cbqpoffs=0 / crqpoffs=0 / rc=abr / bitrate=3200 / qcomp=0.60 / qpstep=4 / stats-write=0 / stats-read=2 / cplxblur=20.0 / qblur=0.5 / ipratio=1.40 / pbratio=1.30 / aq-mode=1 / aq-strength=1.00 / cutree / zone-count=0 / no-strict-cbr / qg-size=32 / no-rc-grain / qpmax=69 / qpmin=0 / no-const-vbv / sar=1 / overscan=0 / videoformat=5 / range=0 / colorprim=2 / transfer=2 / colormatrix=2 / chromaloc=0 / display-window=0 / max-cll=0,0 / min-luma=0 / max-luma=1023 / log2-max-poc-lsb=8 / vui-timing-info / vui-hrd-info / slices=1 / no-opt-qp-pps / no-opt-ref-list-length-pps / no-multi-pass-opt-rps / scenecut-bias=0.05 / no-opt-cu-delta-qp / no-aq-motion / no-hdr / no-hdr-opt / no-dhdr10-opt / no-idr-recovery-sei / analysis-reuse-level=5 / scale-factor=0 / refine-intra=0 / refine-inter=0 / refine-mv=0 / no-limit-sao / ctu-info=0 / no-lowpass-dct / refine-mv-type=0 / copy-pic=1 / max-ausize-factor=1.0 / no-dynamic-refine / no-single-sei

Encoded date                : UTC 2019-11-22 03:07:50

Tagged date                 : UTC 2019-11-22 03:08:41

Codec configuration box     : hvcC


Audio

ID                          : 2

Format                      : AAC LC

Format/Info                 : Advanced Audio Codec Low Complexity

Codec ID                    : mp4a-40-2

Duration                    : 2 h 9 min

Bit rate mode               : Variable

Bit rate                    : 253 kb/s

Maximum bit rate            : 381 kb/s

Channel(s)                  : 6 channels

Channel layout              : C L R Ls Rs LFE

Sampling rate               : 48.0 kHz

Frame rate                  : 46.875 FPS (1024 SPF)

Compression mode            : Lossy

Stream size                 : 234 MiB (7%)

Language                    : English

Encoded date                : UTC 2019-11-22 02:44:21

Tagged date                 : UTC 2019-11-22 03:08:41



https://pan.baidu.com/s/1ZZFPWDD-mBkx2-ZXbmbMdA 提取码:pyft 



1 个附件 售价 大小 下载 时间

愤怒的公牛.Raging.Bull.1980.30th.Anniv.BD1080p.x265.10bit.HEVC.ACC.5.1.英语双字-AWKN.torrent 0 金币 16.27K 2401 次 21天前

#1楼
发帖时间:2019-11-22 21:37:41   |   回复数:6
ALLEN820213
隐世仙人♂
感谢楼主分享!!!
21天前 #2楼
继续支持
一代宗师
谢谢楼主无私分享经典老电影。
21天前 #3楼
ferrari612599gt
武林高手
经典老片,支持一下楼主,好人呀
21天前 #4楼
cliff168
一派掌门
感谢分享好东西
21天前 #5楼
ak147
一代宗师
感谢大大分享
21天前 #6楼
911degrees
隐世仙人♂
非常感谢,谢谢分享
20天前 #7楼
游客组